Download Model Home 2019 1080p WEB-DL DD5 1 H264 LLG torrent - GloDLS
Torrent Details For "Model Home 2019 1080p WEB-DL DD5 1 H264 LLG"

Model Home 2019 1080p WEB-DL DD5 1 H264 LLG

To download this torrent, you need a BitTorrent client: Vuze or BTGuard
Download this torrent
Download using Magnet Link

Health:
Seeds: 2
Leechers: 0
Completed:
Last Checked: 10-10-2019 15:16:56

Uploader Reputation points : 4964
External: Torrent






Write a Review for the Uploader:   0   Say Thanks with one good review:
Share on Facebook


Details
Name:Model Home 2019 1080p WEB-DL DD5 1 H264 LLG
Description:

Quote:




******************************Thumbnail:**********************




******************************Screenshots:********************

Screenshot 1

Screenshot 2

Screenshot 3

Screenshot 4

Screenshot 5

Screenshot 6

Screenshot 7

Screenshot 8

Screenshot 9

Screenshot 0

***************************************************************
General
Model.Home.2019.1080p.WEB-DL.DD5.1.H264.LLG.mp4
Format                                   : MPEG-4
Format profile                           : Base Media
Codec ID                                 : isom (isom/iso2/avc1/mp41)
File size                                : 2.01 GiB
Duration                                 : 1 h 24 min
Overall bit rate mode                    : Variable
Overall bit rate                         : 3 401 kb/s


Video
ID                                       : 1
Format                                   : AVC
Format/Info                              : Advanced Video Codec
Format profile                           : [email protected]
Format settings                          : CABAC / 1 Ref Frames
Format settings, CABAC                   : Yes
Format settings, Reference frames        : 1 frame
Codec ID                                 : avc1
Codec ID/Info                            : Advanced Video Coding
Duration                                 : 1 h 24 min
Bit rate mode                            : Variable
Bit rate                                 : 3 015 kb/s
Maximum bit rate                         : 9 000 kb/s
Width                                    : 1 920 pixels
Height                                   : 804 pixels
Display aspect ratio                     : 2.40:1
Frame rate mode                          : Constant
Frame rate                               : 23.976 (23976/1000) FPS
Color space                              : YUV
Chroma subsampling                       : 4:2:0
Bit depth                                : 8 bits
Scan type                                : Progressive
Bits/(Pixel*Frame)                       : 0.081
Stream size                              : 1.79 GiB (89%)
Language                                 : English

Audio
ID                                       : 2
Format                                   : AC-3
Format/Info                              : Audio Coding 3
Commercial name                          : Dolby Digital
Codec ID                                 : ac-3
Duration                                 : 1 h 24 min
Bit rate mode                            : Constant
Bit rate                                 : 384 kb/s
Channel(s)                               : 6 channels
Channel layout                           : L R C LFE Ls Rs
Sampling rate                            : 48.0 kHz
Frame rate                               : 31.250 FPS (1536 SPF)
Bit depth                                : 16 bits
Compression mode                         : Lossy
Stream size                              : 233 MiB (11%)
Language                                 : English
Service kind                             : Complete Main
Default                                  : Yes
Alternate group                          : 1





***************************************************************



YouTube Video:
Category:Movies
Language:English  English
Total Size:2.03 GB
Info Hash:E32F23568C689555ADEC1C8CF2738045BD23649E
Added By:LifeLongg Verified Uploader
Date Added:2019-10-10 22:16:55
Torrent Status:Torrent Verified


Ratings:Not Yet Rated (Log in to rate it)


Tracker:
udp://tracker.openbittorrent.com:80/announce

This Torrent also has backup trackers
URLSeedersLeechersCompleted
udp://tracker.openbittorrent.com:80/announce000
udp://tracker.opentrackr.org:1337/announce000
udp://exodus.desync.com:6969/announce000
udp://tracker.coppersurfer.tk:6969/announce000
udp://tracker.iamhansen.xyz:2000/announce000
udp://tracker.opentrackr.org:1337/announce000
udp://open.demonii.si:1337/announce000
udp://tracker.pirateparty.gr:6969/announce000


File List: 





Comments
No comments still posted