Download Rogue 2017 Hindi Dubbed 1080p WEB-DL x264 AAC { TaRa } mkv torrent - GloDLS
Torrent Details For "Rogue 2017 Hindi Dubbed 1080p WEB-DL x264 AAC { TaRa } mkv"

Rogue 2017 Hindi Dubbed 1080p WEB-DL x264 AAC { TaRa } mkv

To download this torrent, you need a BitTorrent client: Vuze or BTGuard
Download this torrent
Download using Magnet Link

Health:
Seeds: 197
Leechers: 432
Completed: 343 
Last Checked: 11-10-2019 05:44:32

Uploader Reputation points : 502
External: Torrent






Write a Review for the Uploader:   0   Say Thanks with one good review:
Share on Facebook


Details
Name:Rogue 2017 Hindi Dubbed 1080p WEB-DL x264 AAC { TaRa } mkv
Description:

Rogue 2017 Hindi Dubbed 1080p WEB-DL x264 AAC { TaRa }.mkv


===================================================================
General
Complete name               : Rogue 2017 Hindi Dubbed 1080p WEB-DL x264 AAC { TaRa }.mkv
Format                      : Matroska
Format version              : Version 4
File size                   : 2.23 GiB
Duration                    : 1 h 43 min
Overall bit rate            : 3 101 kb/s
===================================================================
Video
ID                          : 1
Format                      : AVC
Format/Info                 : Advanced Video Codec
Format profile              : [email protected]
Format settings             : CABAC / 4 Ref Frames
Format settings, CABAC      : Yes
Format settings, Reference  : 4 frames
Codec ID                    : V_MPEG4/ISO/AVC
Duration                    : 1 h 43 min
Bit rate                    : 3 000 kb/s
Width                       : 1 920 pixels
Height                      : 1 080 pixels
Display aspect ratio        : 16:9
Frame rate mode             : Constant
Frame rate                  : 25.000 FPS
Color space                 : YUV
Chroma subsampling          : 4:2:0
Bit depth                   : 8 bits
Scan type                   : Progressive
Bits/(Pixel*Frame)          : 0.058
Stream size                 : 2.16 GiB (97%)
Title                       : .....::::: TaRa :::::.....
Language                    : Hindi
Default                     : Yes
Forced                      : No
===================================================================
Audio
ID                          : 2
Format                      : AAC LC
Format/Info                 : Advanced Audio Codec Low Complexity
Codec ID                    : A_AAC-2
Duration                    : 1 h 43 min
Bit rate                    : 96.0 kb/s
Channel(s)                  : 2 channels
Channel layout              : L R
Sampling rate               : 48.0 kHz
Frame rate                  : 46.875 FPS (1024 SPF)
Compression mode            : Lossy
Stream size                 : 70.7 MiB (3%)
Title                       : .....::::: TaRa :::::.....
Language                    : Hindi
Default                     : Yes
Forced                      : No
===================================================================






























YouTube Video:
Category:Movies
Language:Hindi  Hindi
Total Size:2.23 GB
Info Hash:55E3775077DDBBD32DAE2A02C3806C87E2D565AA
Added By:SkTaRa Verified UploaderMovie Pirate
Date Added:2019-10-10 21:48:17
Torrent Status:Torrent Verified


Ratings:Not Yet Rated (Log in to rate it)


Tracker:
udp://tracker.coppersurfer.tk:6969/announce

This Torrent also has backup trackers
URLSeedersLeechersCompleted
udp://tracker.coppersurfer.tk:6969/announce174051
udp://tracker.leechers-paradise.org:6969/announce183943
udp://bt.xxx-tracker.com:2710/announce000
udp://tracker.internetwarriors.net:1337/announce143621
udp://tracker.openbittorrent.com:80/announce142210
udp://explodie.org:6969/announce143219
udp://tracker.opentrackr.org:1337/announce184027
udp://tracker.tiny-vps.com:6969/announce163717
udp://open.demonii.si:1337/announce163221
udp://tracker.torrent.eu.org:451/announce143418
udp://tracker.pirateparty.gr:6969/announce174051
udp://ipv4.tracker.harry.lu:80/announce690
udp://tracker.cyberia.is:6969/announce163631
udp://9.rarbg.to:2750/announce112022
udp://denis.stalker.upeer.me:6969/announce61512


File List: 





Comments
No comments still posted