Download Scary Stories to Tell in the Dark 2019 READNFO 720p WEB-DL H264 AC3 LLG torrent - GloDLS
Torrent Details For "Scary Stories to Tell in the Dark 2019 READNFO 720p WEB-DL H264 AC3 LLG"

Scary Stories to Tell in the Dark 2019 READNFO 720p WEB-DL H264 AC3 LLG

To download this torrent, you need a BitTorrent client: Vuze or BTGuard
Download this torrent
Download using Magnet Link

Health:
Seeds: 1
Leechers: 0
Completed:
Last Checked: 10-10-2019 13:16:11

Uploader Reputation points : 4964
External: Torrent






Write a Review for the Uploader:   0   Say Thanks with one good review:
Share on Facebook


Details
Name:Scary Stories to Tell in the Dark 2019 READNFO 720p WEB-DL H264 AC3 LLG
Description:

Quote:




******************************Thumbnail:**********************




******************************Screenshots:********************

Screenshot 1

Screenshot 2

Screenshot 3

Screenshot 4

Screenshot 5

Screenshot 6

Screenshot 7

Screenshot 8

Screenshot 9

Screenshot 0

***************************************************************
General
Scary Stories to Tell in the Dark.2019.READNFO.720p.WEB-DL.H264.AC3.LLG.mp4
Format                                   : MPEG-4
Format profile                           : Base Media
Codec ID                                 : isom (isom/iso2/avc1/mp41)
File size                                : 2.43 GiB
Duration                                 : 1 h 43 min
Overall bit rate mode                    : Variable
Overall bit rate                         : 3 368 kb/s

Video
ID                                       : 1
Format                                   : AVC
Format/Info                              : Advanced Video Codec
Format profile                           : [email protected]
Format settings                          : CABAC / 1 Ref Frames
Format settings, CABAC                   : Yes
Format settings, Reference frames        : 1 frame
Codec ID                                 : avc1
Codec ID/Info                            : Advanced Video Coding
Duration                                 : 1 h 43 min
Bit rate mode                            : Variable
Bit rate                                 : 2 980 kb/s
Maximum bit rate                         : 9 000 kb/s
Width                                    : 1 920 pixels
Height                                   : 804 pixels
Display aspect ratio                     : 2.40:1
Frame rate mode                          : Constant
Frame rate                               : 25.000 FPS
Color space                              : YUV
Chroma subsampling                       : 4:2:0
Bit depth                                : 8 bits
Scan type                                : Progressive
Bits/(Pixel*Frame)                       : 0.077
Stream size                              : 2.15 GiB (88%)
Language                                 : English

Audio
ID                                       : 2
Format                                   : AC-3
Format/Info                              : Audio Coding 3
Commercial name                          : Dolby Digital
Codec ID                                 : ac-3
Duration                                 : 1 h 43 min
Bit rate mode                            : Constant
Bit rate                                 : 384 kb/s
Channel(s)                               : 2 channels
Channel layout                           : L R
Sampling rate                            : 48.0 kHz
Frame rate                               : 31.250 FPS (1536 SPF)
Bit depth                                : 16 bits
Compression mode                         : Lossy
Stream size                              : 283 MiB (11%)
Language                                 : English
Service kind                             : Complete Main
Default                                  : Yes
Alternate group                          : 1

Menu #1
ID                                       : 3
Codec ID                                 : text
Duration                                 : 1 h 43 min
Language                                 : English


***************************************************************



YouTube Video:
Category:Movies
Language:English  English
Total Size:2.51 GB
Info Hash:85BCB40E3AE211527DBB42F43BA89E3E82C70485
Added By:LifeLongg Verified Uploader
Date Added:2019-10-10 20:16:10
Torrent Status:Torrent Verified


Ratings:Not Yet Rated (Log in to rate it)


Tracker:
udp://tracker.openbittorrent.com:80/announce

This Torrent also has backup trackers
URLSeedersLeechersCompleted
udp://tracker.openbittorrent.com:80/announce000
udp://tracker.opentrackr.org:1337/announce000
udp://exodus.desync.com:6969/announce000
udp://tracker.coppersurfer.tk:6969/announce000
udp://tracker.iamhansen.xyz:2000/announce000
udp://tracker.opentrackr.org:1337/announce000
udp://open.demonii.si:1337/announce000
udp://tracker.pirateparty.gr:6969/announce000


File List: 





Comments
No comments still posted