Download The Prey 2018 1080p WEBRip x264 LLG torrent - GloDLS
Torrent Details For "The Prey 2018 1080p WEBRip x264 LLG"

The Prey 2018 1080p WEBRip x264 LLG

To download this torrent, you need a BitTorrent client: Vuze or BTGuard
Download this torrent
Download using Magnet Link

Health:
Seeds: 1
Leechers: 0
Completed:
Last Checked: 10-10-2019 12:32:29

Uploader Reputation points : 4964
External: Torrent






Write a Review for the Uploader:   0   Say Thanks with one good review:
Share on Facebook


Details
Name:The Prey 2018 1080p WEBRip x264 LLG
Description:

Quote:




******************************Thumbnail:**********************




******************************Screenshots:********************

Screenshot 1

Screenshot 2

Screenshot 3

Screenshot 4

Screenshot 5

Screenshot 6

Screenshot 7

Screenshot 8

Screenshot 9

Screenshot 0

***************************************************************
General
The.Prey.2018.1080p.WEBRip.x264.LLG.mp4
Format                                   : MPEG-4
Format profile                           : Base Media
Codec ID                                 : isom (isom/iso2/avc1/mp41)
File size                                : 1.03 GiB
Duration                                 : 1 h 33 min
Overall bit rate mode                    : Variable
Overall bit rate                         : 1 579 kb/s
Writing application                      : Lavf57.83.100

Video
ID                                       : 1
Format                                   : AVC
Format/Info                              : Advanced Video Codec
Format profile                           : [email protected]
Format settings                          : CABAC / 1 Ref Frames
Format settings, CABAC                   : Yes
Format settings, Reference frames        : 1 frame
Codec ID                                 : avc1
Codec ID/Info                            : Advanced Video Coding
Duration                                 : 1 h 33 min
Bit rate mode                            : Variable
Bit rate                                 : 1 479 kb/s
Maximum bit rate                         : 4 500 kb/s
Width                                    : 1 920 pixels
Height                                   : 864 pixels
Display aspect ratio                     : 2.222
Frame rate mode                          : Constant
Frame rate                               : 24.000 FPS
Color space                              : YUV
Chroma subsampling                       : 4:2:0
Bit depth                                : 8 bits
Scan type                                : Progressive
Bits/(Pixel*Frame)                       : 0.037
Stream size                              : 987 MiB (94%)
Codec configuration box                  : avcC

Audio
ID                                       : 2
Format                                   : AAC LC
Format/Info                              : Advanced Audio Codec Low Complexity
Codec ID                                 : mp4a-40-2
Duration                                 : 1 h 33 min
Bit rate mode                            : Constant
Bit rate                                 : 96.0 kb/s
Channel(s)                               : 2 channels
Channel layout                           : L R
Sampling rate                            : 48.0 kHz
Frame rate                               : 46.875 FPS (1024 SPF)
Compression mode                         : Lossy
Stream size                              : 64.2 MiB (6%)
Default                                  : Yes
Alternate group                          : 1


***************************************************************



YouTube Video:
Category:Movies
Language:English  English
Total Size:1.05 GB
Info Hash:9D5C31A1FDAD4C1C386EEEAA4A57F4062CA6D58F
Added By:LifeLongg Verified Uploader
Date Added:2019-10-10 19:32:28
Torrent Status:Torrent Verified


Ratings:Not Yet Rated (Log in to rate it)


Tracker:
udp://tracker.openbittorrent.com:80/announce

This Torrent also has backup trackers
URLSeedersLeechersCompleted
udp://tracker.openbittorrent.com:80/announce000
udp://tracker.opentrackr.org:1337/announce000
udp://exodus.desync.com:6969/announce000
udp://tracker.coppersurfer.tk:6969/announce000
udp://tracker.iamhansen.xyz:2000/announce000
udp://tracker.opentrackr.org:1337/announce000
udp://open.demonii.si:1337/announce000
udp://tracker.pirateparty.gr:6969/announce000


File List: 





Comments
No comments still posted